  0
SECTION
  2
HEADER
  9
$ACADVER
  1
AC1021
  9
$ACADMAINTVER
 70
     1
  9
$DWGCODEPAGE
  3
ANSI_1252
  9
$LASTSAVEDBY
  1
henry
  9
$INSBASE
 10
0.0
 20
0.0
 30
0.0
  9
$EXTMIN
 10
969.8388556290282
 20
780.5010422393686
 30
0.0
  9
$EXTMAX
 10
993.9757936554444
 20
818.4557788274599
 30
0.0
  9
$LIMMIN
 10
0.0
 20
0.0
  9
$LIMMAX
 10
420.0
 20
297.0
  9
$ORTHOMODE
 70
     0
  9
$REGENMODE
 70
     1
  9
$FILLMODE
 70
     1
  9
$QTEXTMODE
 70
     0
  9
$MIRRTEXT
 70
     0
  9
$LTSCALE
 40
1.0
  9
$ATTMODE
 70
     1
  9
$TEXTSIZE
 40
2.5
  9
$TRACEWID
 40
1.0
  9
$TEXTSTYLE
  7
Lorient
  9
$CLAYER
  8
0
  9
$CELTYPE
  6
ByLayer
  9
$CECOLOR
 62
   256
  9
$CELTSCALE
 40
1.0
  9
$DISPSILH
 70
     0
  9
$DIMSCALE
 40
1.0
  9
$DIMASZ
 40
0.6
  9
$DIMEXO
 40
0.5
  9
$DIMDLI
 40
3.75
  9
$DIMRND
 40
0.0
  9
$DIMDLE
 40
0.0
  9
$DIMEXE
 40
0.5
  9
$DIMTP
 40
0.0
  9
$DIMTM
 40
0.0
  9
$DIMTXT
 40
1.0
  9
$DIMCEN
 40
2.5
  9
$DIMTSZ
 40
0.0
  9
$DIMTOL
 70
     0
  9
$DIMLIM
 70
     0
  9
$DIMTIH
 70
     0
  9
$DIMTOH
 70
     0
  9
$DIMSE1
 70
     0
  9
$DIMSE2
 70
     0
  9
$DIMTAD
 70
     1
  9
$DIMZIN
 70
     8
  9
$DIMBLK
  1

  9
$DIMASO
 70
     1
  9
$DIMSHO
 70
     1
  9
$DIMPOST
  1

  9
$DIMAPOST
  1

  9
$DIMALT
 70
     0
  9
$DIMALTD
 70
     3
  9
$DIMALTF
 40
0.03937007874016
  9
$DIMLFAC
 40
1.0
  9
$DIMTOFL
 70
     1
  9
$DIMTVP
 40
0.0
  9
$DIMTIX
 70
     0
  9
$DIMSOXD
 70
     0
  9
$DIMSAH
 70
     0
  9
$DIMBLK1
  1

  9
$DIMBLK2
  1

  9
$DIMSTYLE
  2
Lorient
  9
$DIMCLRD
 70
     0
  9
$DIMCLRE
 70
     0
  9
$DIMCLRT
 70
   256
  9
$DIMTFAC
 40
1.0
  9
$DIMGAP
 40
0.5
  9
$DIMJUST
 70
     0
  9
$DIMSD1
 70
     0
  9
$DIMSD2
 70
     0
  9
$DIMTOLJ
 70
     0
  9
$DIMTZIN
 70
     8
  9
$DIMALTZ
 70
     0
  9
$DIMALTTZ
 70
     0
  9
$DIMUPT
 70
     0
  9
$DIMDEC
 70
     2
  9
$DIMTDEC
 70
     2
  9
$DIMALTU
 70
     2
  9
$DIMALTTD
 70
     3
  9
$DIMTXSTY
  7
Lorient
  9
$DIMAUNIT
 70
     0
  9
$DIMADEC
 70
     0
  9
$DIMALTRND
 40
0.0
  9
$DIMAZIN
 70
     0
  9
$DIMDSEP
 70
    46
  9
$DIMATFIT
 70
     3
  9
$DIMFRAC
 70
     0
  9
$DIMLDRBLK
  1

  9
$DIMLUNIT
 70
     2
  9
$DIMLWD
 70
    -2
  9
$DIMLWE
 70
    -2
  9
$DIMTMOVE
 70
     0
  9
$DIMFXL
 40
1.0
  9
$DIMFXLON
 70
     0
  9
$DIMJOGANG
 40
0.7853981633974483
  9
$DIMTFILL
 70
     0
  9
$DIMTFILLCLR
 70
     0
  9
$DIMARCSYM
 70
     0
  9
$DIMLTYPE
  6

  9
$DIMLTEX1
  6

  9
$DIMLTEX2
  6

  9
$LUNITS
 70
     2
  9
$LUPREC
 70
     4
  9
$SKETCHINC
 40
1.0
  9
$FILLETRAD
 40
0.0
  9
$AUNITS
 70
     0
  9
$AUPREC
 70
     0
  9
$MENU
  1
.
  9
$ELEVATION
 40
0.0
  9
$PELEVATION
 40
0.0
  9
$THICKNESS
 40
0.0
  9
$LIMCHECK
 70
     0
  9
$CHAMFERA
 40
0.0
  9
$CHAMFERB
 40
0.0
  9
$CHAMFERC
 40
0.0
  9
$CHAMFERD
 40
0.0
  9
$SKPOLY
 70
     0
  9
$TDCREATE
 40
2458408.489285996
  9
$TDUCREATE
 40
2458408.447619329
  9
$TDUPDATE
 40
2458408.578005394
  9
$TDUUPDATE
 40
2458408.536338727
  9
$TDINDWG
 40
0.0093329861
  9
$TDUSRTIMER
 40
0.0093329630
  9
$USRTIMER
 70
     1
  9
$ANGBASE
 50
0.0
  9
$ANGDIR
 70
     0
  9
$PDMODE
 70
     0
  9
$PDSIZE
 40
0.0
  9
$PLINEWID
 40
0.0
  9
$SPLFRAME
 70
     0
  9
$SPLINETYPE
 70
     6
  9
$SPLINESEGS
 70
     8
  9
$HANDSEED
  5
4A9
  9
$SURFTAB1
 70
     6
  9
$SURFTAB2
 70
     6
  9
$SURFTYPE
 70
     6
  9
$SURFU
 70
     6
  9
$SURFV
 70
     6
  9
$UCSBASE
  2

  9
$UCSNAME
  2

  9
$UCSORG
 10
0.0
 20
0.0
 30
0.0
  9
$UCSXDIR
 10
1.0
 20
0.0
 30
0.0
  9
$UCSYDIR
 10
0.0
 20
1.0
 30
0.0
  9
$UCSORTHOREF
  2

  9
$UCSORTHOVIEW
 70
     0
  9
$UCSORGTOP
 10
0.0
 20
0.0
 30
0.0
  9
$UCSORGBOTTOM
 10
0.0
 20
0.0
 30
0.0
  9
$UCSORGLEFT
 10
0.0
 20
0.0
 30
0.0
  9
$UCSORGRIGHT
 10
0.0
 20
0.0
 30
0.0
  9
$UCSORGFRONT
 10
0.0
 20
0.0
 30
0.0
  9
$UCSORGBACK
 10
0.0
 20
0.0
 30
0.0
  9
$PUCSBASE
  2

  9
$PUCSNAME
  2

  9
$PUCSORG
 10
0.0
 20
0.0
 30
0.0
  9
$PUCSXDIR
 10
1.0
 20
0.0
 30
0.0
  9
$PUCSYDIR
 10
0.0
 20
1.0
 30
0.0
  9
$PUCSORTHOREF
  2

  9
$PUCSORTHOVIEW
 70
     0
  9
$PUCSORGTOP
 10
0.0
 20
0.0
 30
0.0
  9
$PUCSORGBOTTOM
 10
0.0
 20
0.0
 30
0.0
  9
$PUCSORGLEFT
 10
0.0
 20
0.0
 30
0.0
  9
$PUCSORGRIGHT
 10
0.0
 20
0.0
 30
0.0
  9
$PUCSORGFRONT
 10
0.0
 20
0.0
 30
0.0
  9
$PUCSORGBACK
 10
0.0
 20
0.0
 30
0.0
  9
$USERI1
 70
     0
  9
$USERI2
 70
     0
  9
$USERI3
 70
     0
  9
$USERI4
 70
     0
  9
$USERI5
 70
     0
  9
$USERR1
 40
0.0
  9
$USERR2
 40
0.0
  9
$USERR3
 40
0.0
  9
$USERR4
 40
0.0
  9
$USERR5
 40
0.0
  9
$WORLDVIEW
 70
     1
  9
$SHADEDGE
 70
     3
  9
$SHADEDIF
 70
    70
  9
$TILEMODE
 70
     1
  9
$MAXACTVP
 70
    64
  9
$PINSBASE
 10
0.0
 20
0.0
 30
0.0
  9
$PLIMCHECK
 70
     0
  9
$PEXTMIN
 10
0.0
 20
0.0
 30
0.0
  9
$PEXTMAX
 10
0.0
 20
0.0
 30
0.0
  9
$PLIMMIN
 10
0.0
 20
0.0
  9
$PLIMMAX
 10
12.0
 20
9.0
  9
$UNITMODE
 70
     0
  9
$VISRETAIN
 70
     1
  9
$PLINEGEN
 70
     0
  9
$PSLTSCALE
 70
     1
  9
$TREEDEPTH
 70
  3020
  9
$CMLSTYLE
  2
Standard
  9
$CMLJUST
 70
     0
  9
$CMLSCALE
 40
20.0
  9
$PROXYGRAPHICS
 70
     1
  9
$MEASUREMENT
 70
     1
  9
$CELWEIGHT
370
    -1
  9
$ENDCAPS
280
     0
  9
$JOINSTYLE
280
     0
  9
$LWDISPLAY
290
     0
  9
$INSUNITS
 70
     4
  9
$HYPERLINKBASE
  1

  9
$STYLESHEET
  1

  9
$XEDIT
290
     1
  9
$CEPSNTYPE
380
     0
  9
$PSTYLEMODE
290
     1
  9
$FINGERPRINTGUID
  2
{C6C2CCC5-E7CC-4C6B-B667-48838B2CEA57}
  9
$VERSIONGUID
  2
{F1014F0C-E011-44F7-A7F1-5604EFBF70D8}
  9
$EXTNAMES
290
     1
  9
$PSVPSCALE
 40
0.0
  9
$OLESTARTUP
290
     0
  9
$SORTENTS
280
   127
  9
$INDEXCTL
280
     0
  9
$HIDETEXT
280
     1
  9
$XCLIPFRAME
290
     0
  9
$HALOGAP
280
     0
  9
$OBSCOLOR
 70
   257
  9
$OBSLTYPE
280
     0
  9
$INTERSECTIONDISPLAY
280
     0
  9
$INTERSECTIONCOLOR
 70
   257
  9
$DIMASSOC
280
     2
  9
$PROJECTNAME
  1

  9
$CAMERADISPLAY
290
     0
  9
$LENSLENGTH
 40
50.0
  9
$CAMERAHEIGHT
 40
0.0
  9
$STEPSPERSEC
 40
2.0
  9
$STEPSIZE
 40
6.0
  9
$3DDWFPREC
 40
2.0
  9
$PSOLWIDTH
 40
5.0
  9
$PSOLHEIGHT
 40
80.0
  9
$LOFTANG1
 40
1.570796326794896
  9
$LOFTANG2
 40
1.570796326794896
  9
$LOFTMAG1
 40
0.0
  9
$LOFTMAG2
 40
0.0
  9
$LOFTPARAM
 70
     7
  9
$LOFTNORMALS
280
     1
  9
$LATITUDE
 40
37.795
  9
$LONGITUDE
 40
-122.394
  9
$NORTHDIRECTION
 40
0.0
  9
$TIMEZONE
 70
 -8000
  9
$LIGHTGLYPHDISPLAY
280
     1
  9
$TILEMODELIGHTSYNCH
280
     1
  9
$CMATERIAL
347
EC
  9
$SOLIDHIST
280
     1
  9
$SHOWHIST
280
     1
  9
$DWFFRAME
280
     2
  9
$DGNFRAME
280
     0
  9
$REALWORLDSCALE
290
     1
  9
$INTERFERECOLOR
 62
     1
  9
$INTERFEREOBJVS
345
F9
  9
$INTERFEREVPVS
346
F6
  9
$CSHADOW
280
     0
  9
$SHADOWPLANELOCATION
 40
0.0
  0
ENDSEC
  0
SECTION
  2
CLASSES
  0
CLASS
  1
ACDBDICTIONARYWDFLT
  2
AcDbDictionaryWithDefault
  3
ObjectDBX Classes
 90
        0
 91
        1
280
     0
281
     0
  0
CLASS
  1
DICTIONARYVAR
  2
AcDbDictionaryVar
  3
ObjectDBX Classes
 90
        0
 91
        3
280
     0
281
     0
  0
CLASS
  1
TABLESTYLE
  2
AcDbTableStyle
  3
ObjectDBX Classes
 90
     4095
 91
        1
280
     0
281
     0
  0
CLASS
  1
MATERIAL
  2
AcDbMaterial
  3
ObjectDBX Classes
 90
     1024
 91
        3
280
     0
281
     0
  0
CLASS
  1
VISUALSTYLE
  2
AcDbVisualStyle
  3
ObjectDBX Classes
 90
     4095
 91
       16
280
     0
281
     0
  0
CLASS
  1
SORTENTSTABLE
  2
AcDbSortentsTable
  3
ObjectDBX Classes
 90
        0
 91
        1
280
     0
281
     0
  0
CLASS
  1
DIMASSOC
  2
AcDbDimAssoc
  3
"AcDbDimAssoc|Product Desc:     AcDim ARX App For Dimension|Company:          Autodesk, Inc.|WEB Address:      www.autodesk.com"
 90
        0
 91
        3
280
     0
281
     0
  0
ENDSEC
  0
SECTION
  2
TABLES
  0
TABLE
  2
VPORT
  5
8
330
0
100
AcDbSymbolTable
 70
     1
  0
VPORT
  5
EA
330
8
100
AcDbSymbolTableRecord
100
AcDbViewportTableRecord
  2
*Active
 70
     0
 10
0.0
 20
0.0
 11
1.0
 21
1.0
 12
982.4557875624533
 22
799.1056425149288
 13
0.0
 23
0.0
 14
10.0
 24
10.0
 15
10.0
 25
10.0
 16
0.0
 26
0.0
 36
1.0
 17
0.0
 27
0.0
 37
0.0
 40
53.36911043268572
 41
1.457978075517661
 42
50.0
 43
0.0
 44
0.0
 50
0.0
 51
0.0
 71
     0
 72
  1000
 73
     1
 74
     3
 75
     0
 76
     0
 77
     0
 78
     0
281
     0
 65
     1
110
0.0
120
0.0
130
0.0
111
1.0
121
0.0
131
0.0
112
0.0
122
1.0
132
0.0
 79
     0
146
0.0
348
F5
 60
     2
 61
     5
292
     1
282
     1
141
0.0
142
0.0
 63
   250
421
  3355443
  0
ENDTAB
  0
TABLE
  2
LTYPE
  5
5
330
0
100
AcDbSymbolTable
 70
     1
  0
LTYPE
  5
14
330
5
100
AcDbSymbolTableRecord
100
AcDbLinetypeTableRecord
  2
ByBlock
 70
     0
  3

 72
    65
 73
     0
 40
0.0
  0
LTYPE
  5
15
330
5
100
AcDbSymbolTableRecord
100
AcDbLinetypeTableRecord
  2
ByLayer
 70
     0
  3

 72
    65
 73
     0
 40
0.0
  0
LTYPE
  5
16
330
5
100
AcDbSymbolTableRecord
100
AcDbLinetypeTableRecord
  2
Continuous
 70
     0
  3
Solid line
 72
    65
 73
     0
 40
0.0
  0
ENDTAB
  0
TABLE
  2
LAYER
  5
2
102
{ACAD_XDICTIONARY
360
113
102
}
330
0
100
AcDbSymbolTable
 70
     5
  0
LAYER
  5
10
330
2
100
AcDbSymbolTableRecord
100
AcDbLayerTableRecord
  2
0
 70
     0
 62
     7
  6
Continuous
370
    -3
390
F
347
EE
  0
LAYER
  5
10F
330
2
100
AcDbSymbolTableRecord
100
AcDbLayerTableRecord
  2
Lorient text
 70
     0
 62
   252
  6
Continuous
370
    -3
390
F
347
EE
1001
AcAecLayerStandard
1000

1000

  0
LAYER
  5
111
330
2
100
AcDbSymbolTableRecord
100
AcDbLayerTableRecord
  2
Lorient dimension
 70
     0
 62
   252
  6
Continuous
370
    -3
390
F
347
EE
1001
AcAecLayerStandard
1000

1000

  0
LAYER
  5
112
330
2
100
AcDbSymbolTableRecord
100
AcDbLayerTableRecord
  2
Lorient profile
 70
     0
 62
   250
  6
Continuous
370
    -3
390
F
347
EE
1001
AcAecLayerStandard
1000

1000

  0
LAYER
  5
36E
330
2
100
AcDbSymbolTableRecord
100
AcDbLayerTableRecord
  2
Defpoints
 70
     0
 62
     7
  6
Continuous
290
     0
370
    -3
390
F
347
EE
  0
ENDTAB
  0
TABLE
  2
STYLE
  5
3
330
0
100
AcDbSymbolTable
 70
     3
  0
STYLE
  5
11
330
3
100
AcDbSymbolTableRecord
100
AcDbTextStyleTableRecord
  2
Standard
 70
     0
 40
0.0
 41
1.0
 50
0.0
 71
     0
 42
2.5
  3
txt
  4

  0
STYLE
  5
116
330
3
100
AcDbSymbolTableRecord
100
AcDbTextStyleTableRecord
  2
Lorient
 70
     0
 40
0.0
 41
1.0
 50
0.0
 71
     0
 42
2.5
  3
utsaah.ttf
  4

1001
ACAD
1000
Utsaah
1071
       34
  0
ENDTAB
  0
TABLE
  2
VIEW
  5
6
330
0
100
AcDbSymbolTable
 70
     0
  0
ENDTAB
  0
TABLE
  2
UCS
  5
7
330
0
100
AcDbSymbolTable
 70
     0
  0
ENDTAB
  0
TABLE
  2
APPID
  5
9
330
0
100
AcDbSymbolTable
 70
     3
  0
APPID
  5
12
330
9
100
AcDbSymbolTableRecord
100
AcDbRegAppTableRecord
  2
ACAD
 70
     0
  0
APPID
  5
9E
330
9
100
AcDbSymbolTableRecord
100
AcDbRegAppTableRecord
  2
ACAD_PSEXT
 70
     0
  0
APPID
  5
110
330
9
100
AcDbSymbolTableRecord
100
AcDbRegAppTableRecord
  2
AcAecLayerStandard
 70
     0
  0
ENDTAB
  0
TABLE
  2
DIMSTYLE
  5
A
330
0
100
AcDbSymbolTable
 70
     2
100
AcDbDimStyleTable
 71
     2
340
122
340
11A
  0
DIMSTYLE
105
11A
102
{ACAD_REACTORS
330
36D
330
386
330
39E
102
}
330
A
100
AcDbSymbolTableRecord
100
AcDbDimStyleTableRecord
  2
Lorient
 70
     0
 41
0.6
 42
0.5
 43
3.75
 44
0.5
 73
     0
 74
     0
 77
     1
 78
     8
140
1.0
141
2.5
143
0.03937007874016
147
0.5
171
     3
172
     1
178
   256
271
     2
272
     2
274
     3
283
     0
284
     8
340
116
  0
DIMSTYLE
105
122
330
A
100
AcDbSymbolTableRecord
100
AcDbDimStyleTableRecord
  2
STANDARD
 70
     0
 40
0.1999999999999997
 41
3.0
 42
3.0
 43
10.0
 44
3.0
 48
0.000000001
 73
     0
 78
     8
140
3.999999999999998
141
3.0
145
1.0
146
0.6666666666666666
147
2.0
172
     1
176
     8
178
     8
271
     2
272
     2
284
     8
288
     1
289
     0
340
116
  0
ENDTAB
  0
TABLE
  2
BLOCK_RECORD
  5
1
330
0
100
AcDbSymbolTable
 70
     4
  0
BLOCK_RECORD
  5
1F
102
{ACAD_XDICTIONARY
360
252
102
}
330
1
100
AcDbSymbolTableRecord
100
AcDbBlockTableRecord
  2
*Model_Space
340
22
 70
     0
280
     1
281
     0
  0
BLOCK_RECORD
  5
D2
330
1
100
AcDbSymbolTableRecord
100
AcDbBlockTableRecord
  2
*Paper_Space
340
D3
 70
     0
280
     1
281
     0
  0
BLOCK_RECORD
  5
D6
330
1
100
AcDbSymbolTableRecord
100
AcDbBlockTableRecord
  2
*Paper_Space0
340
D7
 70
     0
280
     1
281
     0
  0
BLOCK_RECORD
  5
36F
330
1
100
AcDbSymbolTableRecord
100
AcDbBlockTableRecord
  2
*D1
340
0
 70
     0
280
     1
281
     0
  0
BLOCK_RECORD
  5
387
330
1
100
AcDbSymbolTableRecord
100
AcDbBlockTableRecord
  2
*D2
340
0
 70
     0
280
     1
281
     0
  0
BLOCK_RECORD
  5
39F
330
1
100
AcDbSymbolTableRecord
100
AcDbBlockTableRecord
  2
*D3
340
0
 70
     0
280
     1
281
     0
  0
ENDTAB
  0
ENDSEC
  0
SECTION
  2
BLOCKS
  0
BLOCK
  5
20
330
1F
100
AcDbEntity
  8
0
100
AcDbBlockBegin
  2
*Model_Space
 70
     0
 10
0.0
 20
0.0
 30
0.0
  3
*Model_Space
  1

  0
ENDBLK
  5
21
330
1F
100
AcDbEntity
  8
0
100
AcDbBlockEnd
  0
BLOCK
  5
D4
330
D2
100
AcDbEntity
 67
     1
  8
0
100
AcDbBlockBegin
  2
*Paper_Space
 70
     0
 10
0.0
 20
0.0
 30
0.0
  3
*Paper_Space
  1

  0
ENDBLK
  5
D5
330
D2
100
AcDbEntity
 67
     1
  8
0
100
AcDbBlockEnd
  0
BLOCK
  5
D8
330
D6
100
AcDbEntity
 67
     1
  8
0
100
AcDbBlockBegin
  2
*Paper_Space0
 70
     0
 10
0.0
 20
0.0
 30
0.0
  3
*Paper_Space0
  1

  0
ENDBLK
  5
D9
330
D6
100
AcDbEntity
 67
     1
  8
0
100
AcDbBlockEnd
  0
BLOCK
  5
379
330
36F
100
AcDbEntity
  8
0
100
AcDbBlockBegin
  2
*D1
 70
     1
 10
0.0
 20
0.0
 30
0.0
  3
*D1
  1

  0
LINE
  5
486
330
36F
100
AcDbEntity
  8
Lorient dimension
 62
     0
370
    -2
100
AcDbLine
 10
969.9156938760662
 20
784.0173479474112
 30
0.0
 11
969.9156938760662
 21
780.5010422393686
 31
0.0
  0
LINE
  5
487
330
36F
100
AcDbEntity
  8
Lorient dimension
 62
     0
370
    -2
100
AcDbLine
 10
986.9156938760662
 20
784.0173479474112
 30
0.0
 11
986.9156938760662
 21
780.5010422393686
 31
0.0
  0
LINE
  5
488
330
36F
100
AcDbEntity
  8
Lorient dimension
 62
     0
370
    -2
100
AcDbLine
 10
970.5156938760662
 20
781.0010422393686
 30
0.0
 11
986.3156938760662
 21
781.0010422393686
 31
0.0
  0
SOLID
  5
489
330
36F
100
AcDbEntity
  8
Lorient dimension
 62
     0
100
AcDbTrace
 10
970.5156938760662
 20
781.1010422393686
 30
0.0
 11
970.5156938760662
 21
780.9010422393686
 31
0.0
 12
969.9156938760662
 22
781.0010422393686
 32
0.0
 13
969.9156938760662
 23
781.0010422393686
 33
0.0
  0
SOLID
  5
48A
330
36F
100
AcDbEntity
  8
Lorient dimension
 62
     0
100
AcDbTrace
 10
986.3156938760662
 20
781.1010422393686
 30
0.0
 11
986.3156938760662
 21
780.9010422393686
 31
0.0
 12
986.9156938760662
 22
781.0010422393686
 32
0.0
 13
986.9156938760662
 23
781.0010422393686
 33
0.0
  0
MTEXT
  5
48B
330
36F
100
AcDbEntity
  8
Lorient dimension
100
AcDbMText
 10
978.4156938760661
 20
782.0029470012733
 30
0.0
 40
1.0
 41
0.0
 46
0.0
 71
     5
 72
     1
  1
17
  7
Lorient
 73
     1
 44
1.0
  0
POINT
  5
48C
330
36F
100
AcDbEntity
  8
Defpoints
 62
     0
100
AcDbPoint
 10
969.9156938760662
 20
784.5173479474111
 30
0.0
  0
POINT
  5
48D
330
36F
100
AcDbEntity
  8
Defpoints
 62
     0
100
AcDbPoint
 10
986.9156938760662
 20
784.5173479474111
 30
0.0
  0
POINT
  5
48E
330
36F
100
AcDbEntity
  8
Defpoints
 62
     0
100
AcDbPoint
 10
986.9156938760662
 20
781.0010422393686
 30
0.0
  0
ENDBLK
  5
37A
330
36F
100
AcDbEntity
  8
0
100
AcDbBlockEnd
  0
BLOCK
  5
391
330
387
100
AcDbEntity
  8
0
100
AcDbBlockBegin
  2
*D2
 70
     1
 10
0.0
 20
0.0
 30
0.0
  3
*D2
  1

  0
LINE
  5
48F
330
387
100
AcDbEntity
  8
Lorient dimension
 62
     0
370
    -2
100
AcDbLine
 10
987.4156938760661
 20
784.5173479474111
 30
0.0
 11
990.8260292176931
 21
784.5173479474111
 31
0.0
  0
LINE
  5
490
330
387
100
AcDbEntity
  8
Lorient dimension
 62
     0
370
    -2
100
AcDbLine
 10
985.4156938760661
 20
796.5173479474112
 30
0.0
 11
990.8260292176931
 21
796.5173479474112
 31
0.0
  0
LINE
  5
491
330
387
100
AcDbEntity
  8
Lorient dimension
 62
     0
370
    -2
100
AcDbLine
 10
990.3260292176932
 20
785.1173479474112
 30
0.0
 11
990.3260292176932
 21
795.9173479474111
 31
0.0
  0
SOLID
  5
492
330
387
100
AcDbEntity
  8
Lorient dimension
 62
     0
100
AcDbTrace
 10
990.2260292176931
 20
785.1173479474112
 30
0.0
 11
990.4260292176932
 21
785.1173479474112
 31
0.0
 12
990.3260292176932
 22
784.5173479474111
 32
0.0
 13
990.3260292176932
 23
784.5173479474111
 33
0.0
  0
SOLID
  5
493
330
387
100
AcDbEntity
  8
Lorient dimension
 62
     0
100
AcDbTrace
 10
990.2260292176931
 20
795.9173479474111
 30
0.0
 11
990.4260292176932
 21
795.9173479474111
 31
0.0
 12
990.3260292176932
 22
796.5173479474112
 32
0.0
 13
990.3260292176932
 23
796.5173479474112
 33
0.0
  0
MTEXT
  5
494
330
387
100
AcDbEntity
  8
Lorient dimension
100
AcDbMText
 10
989.3241244557883
 20
790.5173479474113
 30
0.0
 40
1.0
 41
0.0
 46
0.0
 71
     5
 72
     1
  1
12
  7
Lorient
 11
0.0000000000000001
 21
1.0
 31
0.0
 73
     1
 44
1.0
  0
POINT
  5
495
330
387
100
AcDbEntity
  8
Defpoints
 62
     0
100
AcDbPoint
 10
986.9156938760662
 20
784.5173479474111
 30
0.0
  0
POINT
  5
496
330
387
100
AcDbEntity
  8
Defpoints
 62
     0
100
AcDbPoint
 10
984.9156938760661
 20
796.5173479474112
 30
0.0
  0
POINT
  5
497
330
387
100
AcDbEntity
  8
Defpoints
 62
     0
100
AcDbPoint
 10
990.3260292176932
 20
796.5173479474112
 30
0.0
  0
ENDBLK
  5
392
330
387
100
AcDbEntity
  8
0
100
AcDbBlockEnd
  0
BLOCK
  5
3A9
330
39F
100
AcDbEntity
  8
0
100
AcDbBlockBegin
  2
*D3
 70
     1
 10
0.0
 20
0.0
 30
0.0
  3
*D3
  1

  0
LINE
  5
498
330
39F
100
AcDbEntity
  8
Lorient dimension
 62
     0
370
    -2
100
AcDbLine
 10
987.4156938760661
 20
784.5173479474111
 30
0.0
 11
993.9757936554444
 21
784.5173479474111
 31
0.0
  0
LINE
  5
499
330
39F
100
AcDbEntity
  8
Lorient dimension
 62
     0
370
    -2
100
AcDbLine
 10
971.3519284063661
 20
813.5173479474111
 30
0.0
 11
993.9757936554444
 21
813.5173479474111
 31
0.0
  0
LINE
  5
49A
330
39F
100
AcDbEntity
  8
Lorient dimension
 62
     0
370
    -2
100
AcDbLine
 10
993.4757936554445
 20
785.1173479474112
 30
0.0
 11
993.4757936554445
 21
812.9173479474111
 31
0.0
  0
SOLID
  5
49B
330
39F
100
AcDbEntity
  8
Lorient dimension
 62
     0
100
AcDbTrace
 10
993.3757936554444
 20
785.1173479474112
 30
0.0
 11
993.5757936554445
 21
785.1173479474112
 31
0.0
 12
993.4757936554445
 22
784.5173479474111
 32
0.0
 13
993.4757936554445
 23
784.5173479474111
 33
0.0
  0
SOLID
  5
49C
330
39F
100
AcDbEntity
  8
Lorient dimension
 62
     0
100
AcDbTrace
 10
993.3757936554444
 20
812.9173479474111
 30
0.0
 11
993.5757936554445
 21
812.9173479474111
 31
0.0
 12
993.4757936554445
 22
813.5173479474111
 32
0.0
 13
993.4757936554445
 23
813.5173479474111
 33
0.0
  0
MTEXT
  5
49D
330
39F
100
AcDbEntity
  8
Lorient dimension
100
AcDbMText
 10
992.465317464968
 20
798.9472016057352
 30
0.0
 40
1.0
 41
0.0
 46
0.0
 71
     5
 72
     1
  1
29
  7
Lorient
 11
0.0000000000000001
 21
1.0
 31
0.0
 73
     1
 44
1.0
  0
POINT
  5
49E
330
39F
100
AcDbEntity
  8
Defpoints
 62
     0
100
AcDbPoint
 10
986.9156938760662
 20
784.5173479474111
 30
0.0
  0
POINT
  5
49F
330
39F
100
AcDbEntity
  8
Defpoints
 62
     0
100
AcDbPoint
 10
970.8519284063662
 20
813.5173479474111
 30
0.0
  0
POINT
  5
4A0
330
39F
100
AcDbEntity
  8
Defpoints
 62
     0
100
AcDbPoint
 10
993.4757936554445
 20
813.5173479474111
 30
0.0
  0
ENDBLK
  5
3AA
330
39F
100
AcDbEntity
  8
0
100
AcDbBlockEnd
  0
ENDSEC
  0
SECTION
  2
ENTITIES
  0
LINE
  5
23F
330
1F
100
AcDbEntity
  8
Lorient profile
  6
Continuous
370
    15
100
AcDbLine
 10
973.815693876066
 20
784.4055716353111
 30
0.0
 11
973.815693876066
 21
787.8055716353111
 31
0.0
  0
LINE
  5
240
330
1F
100
AcDbEntity
  8
Lorient profile
  6
Continuous
370
    15
100
AcDbLine
 10
983.0156938760662
 20
784.4055716353111
 30
0.0
 11
973.815693876066
 21
784.4055716353111
 31
0.0
  0
LINE
  5
241
330
1F
100
AcDbEntity
  8
Lorient profile
  6
Continuous
370
    15
100
AcDbLine
 10
983.0156938760662
 20
787.8055716353111
 30
0.0
 11
983.0156938760662
 21
784.4055716353111
 31
0.0
  0
LINE
  5
242
330
1F
100
AcDbEntity
  8
Lorient profile
  6
Continuous
370
    15
100
AcDbLine
 10
973.815693876066
 20
787.8055716353111
 30
0.0
 11
983.0156938760662
 21
787.8055716353111
 31
0.0
  0
MTEXT
  5
250
330
1F
100
AcDbEntity
  8
Lorient text
100
AcDbMText
 10
969.9917127718855
 20
817.8129216846027
 30
0.0
 40
1.5
 41
16.31073808172641
 46
0.0
 71
     1
 72
     5
  1
LAS6001
  7
Lorient
 73
     1
 44
1.0
  0
LWPOLYLINE
  5
368
330
1F
100
AcDbEntity
  8
Lorient profile
  6
Continuous
370
    15
100
AcDbPolyline
 90
       20
 70
     1
 43
0.0
 10
973.299838979781
 20
797.8721469773112
 42
-0.2216946626430293
 10
973.1466300911812
 20
797.8007044992112
 10
971.4398916227811
 20
797.8007044992111
 42
-0.8722326371673414
 10
971.3456755284305
 20
798.4877850942702
 10
974.4437293909809
 20
799.3537101558112
 42
0.3364594443529687
 10
974.5898916227812
 20
799.5463276387112
 10
974.5898916227812
 20
807.7427991539112
 42
0.3364594443530911
 10
974.4437293909813
 20
807.935416636802
 10
971.3456755283809
 20
808.8013416984111
 42
-0.8722326371674345
 10
971.4398916227811
 20
809.4884222934112
 10
973.1466300911812
 20
809.4884222934112
 42
-0.2216946626428976
 10
973.299838979805
 20
809.4169798153483
 10
973.427920128981
 20
809.2643386456112
 42
0.1853390449315972
 10
973.553294397489
 20
809.1948425537628
 10
975.3455608631812
 20
808.9429559287111
 42
-0.3738846794847393
 10
975.6898916227809
 20
808.5468487012111
 10
975.6898916227811
 20
798.7422780914112
 42
-0.3738846794848461
 10
975.3455608631652
 20
798.3461708639146
 10
973.553294397481
 20
798.0942842388111
 42
0.1853390449315099
 10
973.4279201290572
 20
798.0247881470485
  0
LWPOLYLINE
  5
369
102
{ACAD_REACTORS
330
385
330
39D
330
3B5
102
}
330
1F
100
AcDbEntity
  8
Lorient profile
  6
Continuous
370
    15
100
AcDbPolyline
 90
       66
 70
     1
 43
0.0
 10
970.9794415506891
 20
813.5008150073282
 42
0.0645581867369321
 10
970.8519284063662
 20
813.5173479474111
 10
969.9156938760662
 20
813.5173479474111
 10
969.9156938760662
 20
812.417347947411
 10
970.7724845036374
 20
812.4173479474688
 42
-0.1123949011091798
 10
973.4714213108624
 20
810.9681540936428
 42
-0.6933418032804064
 10
973.340053482766
 20
810.6173479474112
 10
969.9156938760662
 20
810.6173479474112
 10
969.9156938760662
 20
784.5173479474111
 10
971.6656938760662
 20
784.5173479474111
 42
0.4142135623730951
 10
972.1656938760661
 20
785.0173479474111
 10
972.1656938760661
 20
785.3981725882111
 42
0.176326980708468
 10
972.0487160976661
 20
785.7195663930111
 10
971.0156938760659
 20
786.9506743368112
 10
971.0156938760659
 20
795.4173479474111
 10
973.115693876066
 20
795.4173479474111
 10
973.115693876066
 20
792.5673479474112
 42
0.4142135623730951
 10
973.6156938760661
 20
792.0673479474112
 10
976.2656938760661
 20
792.0673479474111
 42
0.4142135623732616
 10
976.465693876066
 20
792.2673479474111
 10
976.4656938760662
 20
792.9673479474112
 42
0.4142135623732616
 10
976.2656938760661
 20
793.1673479474111
 10
974.4156938760662
 20
793.1673479474111
 42
-0.4142135623730951
 10
974.2156938760661
 20
793.3673479474111
 10
974.2156938760661
 20
795.2173479474112
 42
-0.4142135623730951
 10
974.4156938760662
 20
795.4173479474112
 10
982.4156938760662
 20
795.4173479474112
 42
-0.4142135623730951
 10
982.6156938760659
 20
795.2173479474112
 10
982.6156938760661
 20
793.3673479474111
 42
-0.4142135623729286
 10
982.4156938760662
 20
793.1673479474111
 10
980.6656938760662
 20
793.1673479474112
 42
0.4142135623730951
 10
980.4656938760661
 20
792.9673479474112
 10
980.4656938760661
 20
792.2673479474111
 42
0.4142135623730951
 10
980.6656938760662
 20
792.0673479474111
 10
983.2156938760661
 20
792.0673479474112
 42
0.4142135623730951
 10
983.715693876066
 20
792.5673479474112
 10
983.715693876066
 20
795.4173479474111
 10
984.8156938760659
 20
795.4173479474111
 42
-0.4142135623730951
 10
985.8156938760659
 20
794.4173479474111
 10
985.8156938760661
 20
786.9506743368112
 10
984.7826716545066
 20
785.7195663930545
 42
0.1763269807084767
 10
984.6656938760661
 20
785.3981725882111
 10
984.6656938760661
 20
785.0173479474111
 42
0.4142135623730951
 10
985.1656938760662
 20
784.5173479474111
 10
986.9156938760662
 20
784.5173479474111
 10
986.9156938760662
 20
794.5173479474111
 42
0.4142135623730951
 10
984.9156938760661
 20
796.5173479474112
 10
975.6156938760661
 20
796.5173479474112
 10
975.6156938760661
 20
798.1173479474112
 42
0.4547909105156728
 10
975.3316679932661
 20
798.365021602311
 10
973.5220835229549
 20
798.1164174093467
 42
0.1413309904592552
 10
973.4714151150662
 20
798.0939523917111
 10
973.0504771531348
 20
797.7407435030993
 42
-0.1763269807084977
 10
972.9861983921662
 20
797.7173479474111
 10
971.0156938760659
 20
797.7173479474112
 10
971.0156938760665
 20
802.9559101196445
 42
-0.3779644730095262
 10
971.0156938760659
 20
804.2787857752111
 10
971.0156938760659
 20
809.5173479474111
 10
972.9861983921662
 20
809.5173479474111
 42
-0.1763269807085499
 10
973.0504771531661
 20
809.4939523917112
 10
973.4714151150976
 20
809.1407435030992
 42
0.1413309904592446
 10
973.5220835229661
 20
809.1182784855112
 10
975.3316679932881
 20
808.8696742925725
 42
0.4547909105155238
 10
975.6156938760659
 20
809.1173479474111
 10
975.6156938760661
 20
810.0199054017112
 42
0.1519518706121934
 10
975.5274580517076
 20
810.3035429585579
 42
0.1793177699805575
  0
LWPOLYLINE
  5
36A
330
1F
100
AcDbEntity
  8
Lorient profile
  6
Continuous
370
    15
100
AcDbPolyline
 90
        4
 70
     1
 43
0.0
 10
982.965693876066
 20
784.4555716353111
 10
973.8656938760662
 20
784.4555716353111
 10
973.8656938760662
 20
787.7555716353112
 10
982.9656938760662
 20
787.7555716353112
  0
LWPOLYLINE
  5
36B
330
1F
100
AcDbEntity
  8
Lorient profile
  6
Continuous
370
    15
100
AcDbPolyline
 90
       14
 70
     1
 43
0.0
 10
973.3146942038658
 20
790.3906821636677
 42
0.7430394055979236
 10
973.3146942038661
 20
789.7204611069111
 10
978.175104877766
 20
788.2555716353111
 10
978.6562828743662
 20
788.2555716353111
 10
983.516693548267
 20
789.7204611069548
 42
0.7430394055968943
 10
983.5166935482661
 20
790.3906821636111
 10
979.4291227284658
 20
791.6226437940768
 42
-0.3308520196792894
 10
979.215693876066
 20
791.9098813898111
 10
979.2156938760662
 20
793.1673479474111
 42
0.4142135623730951
 10
978.9156938760662
 20
793.4673479474112
 10
977.9156938760662
 20
793.4673479474111
 42
0.4142135623732061
 10
977.615693876066
 20
793.1673479474111
 10
977.615693876066
 20
791.9098813898111
 42
-0.3308520196793983
 10
977.4022650236661
 20
791.6226437941111
  0
LWPOLYLINE
  5
36C
330
1F
100
AcDbEntity
  8
Lorient profile
 48
100.0
100
AcDbPolyline
 90
       32
 70
     1
 43
0.0
 10
983.6465502696659
 20
790.8215385572112
 10
980.3579797776659
 20
791.8126877859217
 42
-0.3308520196794757
 10
980.215693876066
 20
792.0041795164112
 10
980.215693876066
 20
793.2673479474112
 42
-0.4142135623730951
 10
980.4156938760661
 20
793.4673479474112
 10
981.9156938760661
 20
793.4673479474111
 42
0.4142135623730951
 10
982.3156938760659
 20
793.8673479474112
 10
982.3156938760662
 20
794.7173479474112
 42
0.4142135623730118
 10
981.9156938760661
 20
795.1173479474111
 10
974.9156938760661
 20
795.1173479474111
 42
0.4142135623730118
 10
974.515693876066
 20
794.7173479474112
 10
974.5156938760661
 20
793.8673479474112
 42
0.4142135623730951
 10
974.9156938760661
 20
793.4673479474112
 10
976.4156938760661
 20
793.4673479474112
 42
-0.4142135623730951
 10
976.6156938760659
 20
793.2673479474112
 10
976.6156938760662
 20
792.0041795164112
 42
-0.33085201967883
 10
976.4734079744661
 20
791.812687785911
 10
973.1848374824654
 20
790.821538557269
 42
0.7430394055978925
 10
973.1848374824661
 20
789.2896047133111
 10
975.3167490597663
 20
788.6470633658006
 42
-0.8633870771765275
 10
975.259034961366
 20
788.2555716353111
 10
973.565693876066
 20
788.2555716353111
 42
0.4142135623730951
 10
973.3656938760661
 20
788.0555716353111
 10
973.365693876066
 20
784.1555716353111
 42
0.4142135623729286
 10
973.565693876066
 20
783.9555716353111
 10
983.2656938760662
 20
783.9555716353112
 42
0.4142135623732616
 10
983.4656938760662
 20
784.1555716353111
 10
983.4656938760662
 20
788.0555716353111
 42
0.4142135623730951
 10
983.2656938760662
 20
788.2555716353111
 10
981.572352790766
 20
788.2555716353111
 42
-0.8633870771767197
 10
981.5146386923661
 20
788.6470633658111
 10
983.6465502696668
 20
789.2896047133532
 42
0.7430394055980551
  0
DIMENSION
  5
36D
102
{ACAD_XDICTIONARY
360
37B
102
}
102
{ACAD_REACTORS
330
385
102
}
330
1F
100
AcDbEntity
  8
Lorient dimension
100
AcDbDimension
  2
*D1
 10
986.9156938760662
 20
781.0010422393686
 30
0.0
 11
978.4156938760661
 21
781.0010422393686
 31
0.0
 70
   160
 71
     5
 42
17.0
 73
     0
 74
     0
 75
     0
  3
Lorient
100
AcDbAlignedDimension
 13
969.9156938760662
 23
784.5173479474111
 33
0.0
 14
986.9156938760662
 24
784.5173479474111
 34
0.0
100
AcDbRotatedDimension
  0
DIMENSION
  5
386
102
{ACAD_XDICTIONARY
360
393
102
}
102
{ACAD_REACTORS
330
39D
102
}
330
1F
100
AcDbEntity
  8
Lorient dimension
100
AcDbDimension
  2
*D2
 10
990.3260292176932
 20
796.5173479474112
 30
0.0
 11
990.3260292176929
 21
790.5173479474113
 31
0.0
 70
   160
 71
     5
 42
12.0
 73
     0
 74
     0
 75
     0
  3
Lorient
100
AcDbAlignedDimension
 13
986.9156938760662
 23
784.5173479474111
 33
0.0
 14
984.9156938760661
 24
796.5173479474112
 34
0.0
 50
90.0
100
AcDbRotatedDimension
  0
DIMENSION
  5
39E
102
{ACAD_XDICTIONARY
360
3AB
102
}
102
{ACAD_REACTORS
330
3B5
102
}
330
1F
100
AcDbEntity
  8
Lorient dimension
100
AcDbDimension
  2
*D3
 10
993.4757936554445
 20
813.5173479474111
 30
0.0
 11
993.4757936554442
 21
798.9472016057352
 31
0.0
 70
   160
 71
     5
 42
29.0
 73
     0
 74
     0
 75
     0
  3
Lorient
100
AcDbAlignedDimension
 13
986.9156938760662
 23
784.5173479474111
 33
0.0
 14
970.8519284063662
 24
813.5173479474111
 34
0.0
 50
90.0
100
AcDbRotatedDimension
  0
ENDSEC
  0
SECTION
  2
OBJECTS
  0
DICTIONARY
  5
C
330
0
100
AcDbDictionary
281
     1
  3
ACAD_COLOR
350
6B
  3
ACAD_GROUP
350
D
  3
ACAD_LAYOUT
350
1A
  3
ACAD_MATERIAL
350
6A
  3
ACAD_MLINESTYLE
350
17
  3
ACAD_PLOTSETTINGS
350
19
  3
ACAD_PLOTSTYLENAME
350
E
  3
ACAD_TABLESTYLE
350
7E
  3
ACAD_VISUALSTYLE
350
EF
  3
AcDbVariableDictionary
350
5E
  3
BNS_VARIABLES
350
2DB
  0
DICTIONARY
  5
113
330
2
100
AcDbDictionary
280
     1
281
     1
  3
ACAD_LAYERFILTERS
360
115
  3
ACAD_LAYERSTATES
360
127
  3
ACLYDICTIONARY
360
114
  0
DICTIONARY
  5
252
330
1F
100
AcDbDictionary
280
     1
281
     1
  3
ACAD_SORTENTS
360
253
  0
DICTIONARY
  5
37B
330
36D
100
AcDbDictionary
280
     1
281
     1
  3
ACAD_DIMASSOC
360
385
  0
DICTIONARY
  5
393
330
386
100
AcDbDictionary
280
     1
281
     1
  3
ACAD_DIMASSOC
360
39D
  0
DICTIONARY
  5
3AB
330
39E
100
AcDbDictionary
280
     1
281
     1
  3
ACAD_DIMASSOC
360
3B5
  0
DICTIONARY
  5
6B
102
{ACAD_REACTORS
330
C
102
}
330
C
100
AcDbDictionary
281
     1
  0
DICTIONARY
  5
D
102
{ACAD_REACTORS
330
C
102
}
330
C
100
AcDbDictionary
281
     1
  0
DICTIONARY
  5
1A
102
{ACAD_REACTORS
330
C
102
}
330
C
100
AcDbDictionary
281
     1
  3
Layout1
350
D3
  3
Layout2
350
D7
  3
Model
350
22
  0
DICTIONARY
  5
6A
102
{ACAD_REACTORS
330
C
102
}
330
C
100
AcDbDictionary
281
     1
  3
ByBlock
350
ED
  3
ByLayer
350
EC
  3
Global
350
EE
  0
DICTIONARY
  5
17
102
{ACAD_REACTORS
330
C
102
}
330
C
100
AcDbDictionary
281
     1
  3
Standard
350
18
  0
DICTIONARY
  5
19
102
{ACAD_REACTORS
330
C
102
}
330
C
100
AcDbDictionary
281
     1
  0
ACDBDICTIONARYWDFLT
  5
E
102
{ACAD_REACTORS
330
C
102
}
330
C
100
AcDbDictionary
281
     1
  3
Normal
350
F
100
AcDbDictionaryWithDefault
340
F
  0
DICTIONARY
  5
7E
102
{ACAD_REACTORS
330
C
102
}
330
C
100
AcDbDictionary
281
     1
  3
Standard
350
7F
  0
DICTIONARY
  5
EF
102
{ACAD_REACTORS
330
C
102
}
330
C
100
AcDbDictionary
281
     1
  3
2dWireframe
350
F5
  3
3D Hidden
350
F7
  3
3dWireframe
350
F6
  3
Basic
350
F4
  3
Brighten
350
FB
  3
ColorChange
350
FF
  3
Conceptual
350
F8
  3
Dim
350
FA
  3
Facepattern
350
FE
  3
Flat
350
F0
  3
FlatWithEdges
350
F1
  3
Gouraud
350
F2
  3
GouraudWithEdges
350
F3
  3
Linepattern
350
FD
  3
Realistic
350
F9
  3
Thicken
350
FC
  0
DICTIONARY
  5
5E
102
{ACAD_REACTORS
330
C
102
}
330
C
100
AcDbDictionary
281
     1
  3
CTABLESTYLE
350
84
  3
DIMASSOC
350
5F
  3
HIDETEXT
350
63
  0
DICTIONARY
  5
2DB
102
{ACAD_REACTORS
330
C
102
}
330
C
100
AcDbDictionary
281
     1
  3
ACET-OVERKILL-FUZZ
350
2DC
  3
ACET-OVERKILL-NO-ENDTOEND
350
2DF
  3
ACET-OVERKILL-NO-PARTIAL
350
2DE
  3
ACET-OVERKILL-NO-PLINES
350
2DD
  0
DICTIONARY
  5
115
102
{ACAD_REACTORS
330
113
102
}
330
113
100
AcDbDictionary
281
     1
  0
DICTIONARY
  5
127
102
{ACAD_REACTORS
330
113
102
}
330
113
100
AcDbDictionary
281
     1
  0
DICTIONARY
  5
114
102
{ACAD_REACTORS
330
113
102
}
330
113
100
AcDbDictionary
281
     1
1001
ACAD
1000
<All
  0
SORTENTSTABLE
  5
253
102
{ACAD_REACTORS
330
252
102
}
330
252
100
AcDbSortentsTable
330
1F
331
250
  5
36C
331
36C
  5
34C
331
23F
  5
347
331
368
  5
2D6
331
240
  5
348
331
369
  5
2F1
331
241
  5
349
331
36A
  5
334
331
242
  5
34A
331
36B
  5
339
  0
DIMASSOC
  5
385
102
{ACAD_REACTORS
330
37B
102
}
330
37B
100
AcDbDimAssoc
330
36D
 90
        3
 70
     0
 71
     0
  1
AcDbOsnapPointRef
 72
     1
331
369
 73
     2
 91
        8
 40
1.0
 10
0.0
 20
0.0
 30
2.000000000000000E+50
 75
     0
  1
AcDbOsnapPointRef
 72
     1
331
369
 73
     2
 91
       44
 40
1.0
 10
0.0
 20
0.0
 30
2.000000000000000E+50
 75
     0
  0
DIMASSOC
  5
39D
102
{ACAD_REACTORS
330
393
102
}
330
393
100
AcDbDimAssoc
330
386
 90
        2
 70
     0
 71
     0
  1
AcDbOsnapPointRef
 72
     1
331
369
 73
     2
 91
       46
 40
1.570796326794896
 10
0.0
 20
0.0
 30
2.000000000000000E+50
 75
     0
  0
DIMASSOC
  5
3B5
102
{ACAD_REACTORS
330
3AB
102
}
330
3AB
100
AcDbDimAssoc
330
39E
 90
        2
 70
     0
 71
     0
  1
AcDbOsnapPointRef
 72
    13
331
369
 73
     2
 91
        2
 40
0.0
 10
0.0
 20
0.0
 30
2.000000000000000E+50
 75
     0
  0
LAYOUT
  5
D3
102
{ACAD_REACTORS
330
1A
102
}
330
1A
100
AcDbPlotSettings
  1

  2
C:\Documents and Settings\basas\Application Data\Autodesk\AutoCAD 2005\R16.1\enu\plotters\Default Windows System Printer.pc3
  4

  6

 40
0.0
 41
0.0
 42
0.0
 43
0.0
 44
0.0
 45
0.0
 46
0.0
 47
0.0
 48
0.0
 49
0.0
140
0.0
141
0.0
142
1.0
143
1.0
 70
   688
 72
     0
 73
     0
 74
     5
  7

 75
    16
147
1.0
 76
     0
 77
     2
 78
   300
148
0.0
149
0.0
100
AcDbLayout
  1
Layout1
 70
     1
 71
     1
 10
0.0
 20
0.0
 11
12.0
 21
9.0
 12
0.0
 22
0.0
 32
0.0
 14
0.0
 24
0.0
 34
0.0
 15
0.0
 25
0.0
 35
0.0
146
0.0
 13
0.0
 23
0.0
 33
0.0
 16
1.0
 26
0.0
 36
0.0
 17
0.0
 27
1.0
 37
0.0
 76
     0
330
D2
  0
LAYOUT
  5
D7
102
{ACAD_REACTORS
330
1A
102
}
330
1A
100
AcDbPlotSettings
  1

  2
C:\Documents and Settings\basas\Application Data\Autodesk\AutoCAD 2005\R16.1\enu\plotters\Default Windows System Printer.pc3
  4

  6

 40
0.0
 41
0.0
 42
0.0
 43
0.0
 44
0.0
 45
0.0
 46
0.0
 47
0.0
 48
0.0
 49
0.0
140
0.0
141
0.0
142
1.0
143
1.0
 70
   688
 72
     0
 73
     0
 74
     5
  7

 75
    16
147
1.0
 76
     0
 77
     2
 78
   300
148
0.0
149
0.0
100
AcDbLayout
  1
Layout2
 70
     1
 71
     2
 10
0.0
 20
0.0
 11
12.0
 21
9.0
 12
0.0
 22
0.0
 32
0.0
 14
0.0
 24
0.0
 34
0.0
 15
0.0
 25
0.0
 35
0.0
146
0.0
 13
0.0
 23
0.0
 33
0.0
 16
1.0
 26
0.0
 36
0.0
 17
0.0
 27
1.0
 37
0.0
 76
     0
330
D6
  0
LAYOUT
  5
22
102
{ACAD_REACTORS
330
1A
102
}
330
1A
100
AcDbPlotSettings
  1

  2
none_device
  4
ISO_A4_(210.00_x_297.00_MM)
  6

 40
7.5
 41
20.0
 42
7.5
 43
20.0
 44
210.0
 45
297.0
 46
11.54999923706054
 47
-13.65000009536743
 48
0.0
 49
0.0
140
0.0
141
0.0
142
1.0
143
8.704084754739808
 70
 11952
 72
     1
 73
     0
 74
     0
  7

 75
     0
147
0.1148885871608098
 76
     0
 77
     2
 78
   300
148
0.0
149
0.0
100
AcDbLayout
  1
Model
 70
     1
 71
     0
 10
0.0
 20
0.0
 11
12.0
 21
9.0
 12
0.0
 22
0.0
 32
0.0
 14
0.0
 24
0.0
 34
0.0
 15
0.0
 25
0.0
 35
0.0
146
0.0
 13
0.0
 23
0.0
 33
0.0
 16
1.0
 26
0.0
 36
0.0
 17
0.0
 27
1.0
 37
0.0
 76
     0
330
1F
331
EA
1001
ACAD_PSEXT
1000
None
1000
None
1000
Not applicable
1000
The layout will not be plotted unless a new plotter configuration name is selected.
1070
     0
  0
MATERIAL
  5
ED
102
{ACAD_REACTORS
330
6A
102
}
330
6A
100
AcDbMaterial
  1
ByBlock
  0
MATERIAL
  5
EC
102
{ACAD_REACTORS
330
6A
102
}
330
6A
100
AcDbMaterial
  1
ByLayer
  0
MATERIAL
  5
EE
102
{ACAD_REACTORS
330
6A
102
}
330
6A
100
AcDbMaterial
  1
Global
  0
MLINESTYLE
  5
18
102
{ACAD_REACTORS
330
17
102
}
330
17
100
AcDbMlineStyle
  2
STANDARD
 70
     0
  3

 62
   256
 51
90.0
 52
90.0
 71
     2
 49
0.5
 62
   256
  6
BYLAYER
 49
-0.5
 62
   256
  6
BYLAYER
  0
ACDBPLACEHOLDER
  5
F
102
{ACAD_REACTORS
330
E
102
}
330
E
  0
TABLESTYLE
  5
7F
102
{ACAD_REACTORS
330
7E
102
}
330
7E
100
AcDbTableStyle
  3
Standard
 70
     0
 71
     0
 40
1.5
 41
1.5
280
     0
281
     0
  7
Standard
140
4.5
170
     2
 62
     0
 63
     7
283
     0
 90
      512
 91
        0
  1

274
    -2
284
     1
 64
     0
275
    -2
285
     1
 65
     0
276
    -2
286
     1
 66
     0
277
    -2
287
     1
 67
     0
278
    -2
288
     1
 68
     0
279
    -2
289
     1
 69
     0
  7
Standard
140
6.0
170
     5
 62
     0
 63
     7
283
     0
 90
      512
 91
        0
  1

274
    -2
284
     1
 64
     0
275
    -2
285
     1
 65
     0
276
    -2
286
     1
 66
     0
277
    -2
287
     1
 67
     0
278
    -2
288
     1
 68
     0
279
    -2
289
     1
 69
     0
  7
Standard
140
4.5
170
     5
 62
     0
 63
     7
283
     0
 90
      512
 91
        0
  1

274
    -2
284
     1
 64
     0
275
    -2
285
     1
 65
     0
276
    -2
286
     1
 66
     0
277
    -2
287
     1
 67
     0
278
    -2
288
     1
 68
     0
279
    -2
289
     1
 69
     0
  0
VISUALSTYLE
  5
F5
102
{ACAD_REACTORS
330
EF
102
}
330
EF
100
AcDbVisualStyle
  2
2dWireframe
 70
     4
 71
     0
 72
     2
 73
     1
 90
        0
 40
-0.6
 41
-30.0
 62
     5
 63
     7
421
 16777215
 74
     1
 91
        4
 64
     7
 65
   257
 75
     1
175
     1
 42
1.0
 92
        0
 66
   257
 43
1.0
 76
     1
 77
     6
 78
     2
 67
     7
 79
     5
170
     0
171
     0
290
     0
174
     0
 93
        1
 44
0.0
173
     0
291
     0
 45
0.0
  0
VISUALSTYLE
  5
F7
102
{ACAD_REACTORS
330
EF
102
}
330
EF
100
AcDbVisualStyle
  2
3D Hidden
 70
     6
 71
     1
 72
     2
 73
     2
 90
        0
 40
-0.6
 41
-30.0
 62
     5
 63
     7
421
 16777215
 74
     2
 91
        2
 64
     7
 65
   257
 75
     2
175
     1
 42
40.0
 92
        0
 66
   257
 43
1.0
 76
     1
 77
     6
 78
     2
 67
     7
 79
     3
170
     0
171
     0
290
     0
174
     0
 93
        1
 44
0.0
173
     0
291
     0
 45
0.0
  0
VISUALSTYLE
  5
F6
102
{ACAD_REACTORS
330
EF
102
}
330
EF
100
AcDbVisualStyle
  2
3dWireframe
 70
     5
 71
     0
 72
     2
 73
     1
 90
        0
 40
-0.6
 41
-30.0
 62
     5
 63
     7
421
 16777215
 74
     1
 91
        4
 64
     7
 65
   257
 75
     1
175
     1
 42
1.0
 92
        0
 66
   257
 43
1.0
 76
     1
 77
     6
 78
     2
 67
     7
 79
     5
170
     0
171
     0
290
     0
174
     0
 93
        1
 44
0.0
173
     0
291
     0
 45
0.0
  0
VISUALSTYLE
  5
F4
102
{ACAD_REACTORS
330
EF
102
}
330
EF
100
AcDbVisualStyle
  2
Basic
 70
     7
 71
     1
 72
     0
 73
     1
 90
        0
 40
-0.6
 41
-30.0
 62
     5
 63
     7
421
 16777215
 74
     0
 91
        4
 64
     7
 65
   257
 75
     1
175
     1
 42
1.0
 92
        8
 66
     7
 43
1.0
 76
     1
 77
     6
 78
     2
 67
     7
 79
     5
170
     0
171
     0
290
     0
174
     0
 93
        1
 44
0.0
173
     0
291
     1
 45
0.0
  0
VISUALSTYLE
  5
FB
102
{ACAD_REACTORS
330
EF
102
}
330
EF
100
AcDbVisualStyle
  2
Brighten
 70
    12
 71
     2
 72
     2
 73
     1
 90
        0
 40
-0.6
 41
-30.0
 62
     5
 63
     7
421
 16777215
 74
     1
 91
        4
 64
     7
 65
   257
 75
     1
175
     1
 42
1.0
 92
        8
 66
     7
 43
1.0
 76
     1
 77
     6
 78
     2
 67
     7
 79
     5
170
     0
171
     0
290
     0
174
     0
 93
        1
 44
50.0
173
     0
291
     1
 45
0.0
  0
VISUALSTYLE
  5
FF
102
{ACAD_REACTORS
330
EF
102
}
330
EF
100
AcDbVisualStyle
  2
ColorChange
 70
    16
 71
     2
 72
     2
 73
     3
 90
        0
 40
-0.6
 41
-30.0
 62
     5
 63
     8
421
  8421504
 74
     1
 91
        4
 64
     7
 65
   257
 75
     1
175
     1
 42
1.0
 92
        8
 66
     8
424
  8421504
 43
1.0
 76
     1
 77
     6
 78
     2
 67
     7
 79
     5
170
     0
171
     0
290
     0
174
     0
 93
        1
 44
0.0
173
     0
291
     1
 45
0.0
  0
VISUALSTYLE
  5
F8
102
{ACAD_REACTORS
330
EF
102
}
330
EF
100
AcDbVisualStyle
  2
Conceptual
 70
     9
 71
     3
 72
     2
 73
     1
 90
        0
 40
-0.6
 41
-30.0
 62
     5
 63
     7
421
 16777215
 74
     2
 91
        2
 64
     7
 65
   257
 75
     1
175
     1
 42
40.0
 92
        8
 66
     7
 43
1.0
 76
     1
 77
     6
 78
     2
 67
     7
 79
     3
170
     0
171
     0
290
     0
174
     0
 93
        1
 44
0.0
173
     0
291
     0
 45
0.0
  0
VISUALSTYLE
  5
FA
102
{ACAD_REACTORS
330
EF
102
}
330
EF
100
AcDbVisualStyle
  2
Dim
 70
    11
 71
     2
 72
     2
 73
     1
 90
        0
 40
-0.6
 41
-30.0
 62
     5
 63
     7
421
 16777215
 74
     1
 91
        4
 64
     7
 65
   257
 75
     1
175
     1
 42
1.0
 92
        8
 66
     7
 43
1.0
 76
     1
 77
     6
 78
     2
 67
     7
 79
     5
170
     0
171
     0
290
     0
174
     0
 93
        1
 44
-50.0
173
     0
291
     1
 45
0.0
  0
VISUALSTYLE
  5
FE
102
{ACAD_REACTORS
330
EF
102
}
330
EF
100
AcDbVisualStyle
  2
Facepattern
 70
    15
 71
     2
 72
     2
 73
     1
 90
        0
 40
-0.6
 41
-30.0
 62
     5
 63
     7
421
 16777215
 74
     1
 91
        4
 64
     7
 65
   257
 75
     1
175
     1
 42
1.0
 92
        8
 66
     7
 43
1.0
 76
     1
 77
     6
 78
     2
 67
     7
 79
     5
170
     0
171
     0
290
     0
174
     0
 93
        1
 44
0.0
173
     0
291
     1
 45
0.0
  0
VISUALSTYLE
  5
F0
102
{ACAD_REACTORS
330
EF
102
}
330
EF
100
AcDbVisualStyle
  2
Flat
 70
     0
 71
     2
 72
     1
 73
     1
 90
        2
 40
-0.6
 41
30.0
 62
     5
 63
     7
421
 16777215
 74
     0
 91
        4
 64
     7
 65
   257
 75
     1
175
     1
 42
1.0
 92
        8
 66
     7
 43
1.0
 76
     1
 77
     6
 78
     2
 67
     7
 79
     5
170
     0
171
     0
290
     0
174
     0
 93
        1
 44
0.0
173
     0
291
     1
 45
0.0
  0
VISUALSTYLE
  5
F1
102
{ACAD_REACTORS
330
EF
102
}
330
EF
100
AcDbVisualStyle
  2
FlatWithEdges
 70
     1
 71
     2
 72
     1
 73
     1
 90
        2
 40
-0.6
 41
30.0
 62
     5
 63
     7
421
 16777215
 74
     1
 91
        4
 64
     7
 65
   257
 75
     1
175
     1
 42
1.0
 92
        0
 66
   257
 43
1.0
 76
     1
 77
     6
 78
     2
 67
     7
 79
     5
170
     0
171
     0
290
     0
174
     0
 93
        1
 44
0.0
173
     0
291
     1
 45
0.0
  0
VISUALSTYLE
  5
F2
102
{ACAD_REACTORS
330
EF
102
}
330
EF
100
AcDbVisualStyle
  2
Gouraud
 70
     2
 71
     2
 72
     2
 73
     1
 90
        2
 40
-0.6
 41
30.0
 62
     5
 63
     7
421
 16777215
 74
     0
 91
        4
 64
     7
 65
   257
 75
     1
175
     1
 42
1.0
 92
        0
 66
     7
 43
1.0
 76
     1
 77
     6
 78
     2
 67
     7
 79
     5
170
     0
171
     0
290
     0
174
     0
 93
        1
 44
0.0
173
     0
291
     1
 45
0.0
  0
VISUALSTYLE
  5
F3
102
{ACAD_REACTORS
330
EF
102
}
330
EF
100
AcDbVisualStyle
  2
GouraudWithEdges
 70
     3
 71
     2
 72
     2
 73
     1
 90
        2
 40
-0.6
 41
30.0
 62
     5
 63
     7
421
 16777215
 74
     1
 91
        4
 64
     7
 65
   257
 75
     1
175
     1
 42
1.0
 92
        0
 66
   257
 43
1.0
 76
     1
 77
     6
 78
     2
 67
     7
 79
     5
170
     0
171
     0
290
     0
174
     0
 93
        1
 44
0.0
173
     0
291
     1
 45
0.0
  0
VISUALSTYLE
  5
FD
102
{ACAD_REACTORS
330
EF
102
}
330
EF
100
AcDbVisualStyle
  2
Linepattern
 70
    14
 71
     2
 72
     2
 73
     1
 90
        0
 40
-0.6
 41
-30.0
 62
     5
 63
     7
421
 16777215
 74
     1
 91
        4
 64
     7
 65
   257
 75
     7
175
     7
 42
1.0
 92
        8
 66
     7
 43
1.0
 76
     1
 77
     6
 78
     2
 67
     7
 79
     5
170
     0
171
     0
290
     0
174
     0
 93
        1
 44
0.0
173
     0
291
     1
 45
0.0
  0
VISUALSTYLE
  5
F9
102
{ACAD_REACTORS
330
EF
102
}
330
EF
100
AcDbVisualStyle
  2
Realistic
 70
     8
 71
     2
 72
     2
 73
     1
 90
        0
 40
-0.6
 41
-30.0
 62
     5
 63
     7
421
 16777215
 74
     1
 91
        0
 64
     7
 65
   257
 75
     1
175
     1
 42
1.0
 92
        8
 66
     8
424
  7895160
 43
1.0
 76
     1
 77
     6
 78
     2
 67
     7
 79
     5
170
     0
171
     0
290
     0
174
     0
 93
       13
 44
0.0
173
     0
291
     0
 45
0.0
  0
VISUALSTYLE
  5
FC
102
{ACAD_REACTORS
330
EF
102
}
330
EF
100
AcDbVisualStyle
  2
Thicken
 70
    13
 71
     2
 72
     2
 73
     1
 90
        0
 40
-0.6
 41
-30.0
 62
     5
 63
     7
421
 16777215
 74
     1
 91
        4
 64
     7
 65
   257
 75
     1
175
     1
 42
1.0
 92
       12
 66
     7
 43
1.0
 76
     1
 77
     6
 78
     2
 67
     7
 79
     5
170
     0
171
     0
290
     0
174
     0
 93
        1
 44
0.0
173
     0
291
     1
 45
0.0
  0
DICTIONARYVAR
  5
84
102
{ACAD_REACTORS
330
5E
102
}
330
5E
100
DictionaryVariables
280
     0
  1
STANDARD
  0
DICTIONARYVAR
  5
5F
102
{ACAD_REACTORS
330
5E
102
}
330
5E
100
DictionaryVariables
280
     0
  1
2
  0
DICTIONARYVAR
  5
63
102
{ACAD_REACTORS
330
5E
102
}
330
5E
100
DictionaryVariables
280
     0
  1
1
  0
XRECORD
  5
2DC
102
{ACAD_REACTORS
330
2DB
102
}
330
2DB
100
AcDbXrecord
280
     1
 40
0.000001
  0
XRECORD
  5
2DF
102
{ACAD_REACTORS
330
2DB
102
}
330
2DB
100
AcDbXrecord
280
     1
 70
     0
  0
XRECORD
  5
2DE
102
{ACAD_REACTORS
330
2DB
102
}
330
2DB
100
AcDbXrecord
280
     1
 70
     0
  0
XRECORD
  5
2DD
102
{ACAD_REACTORS
330
2DB
102
}
330
2DB
100
AcDbXrecord
280
     1
 70
     0
  0
ENDSEC
  0
EOF
